<?xml version="1.0" encoding="UTF-8" standalone="no"?>
<!-- Created with Inkscape (http://www.inkscape.org/) -->

<svg
   xmlns:dc="http://purl.org/dc/elements/1.1/"
   xmlns:cc="http://creativecommons.org/ns#"
   xmlns:rdf="http://www.w3.org/1999/02/22-rdf-syntax-ns#"
   xmlns:svg="http://www.w3.org/2000/svg"
   xmlns="http://www.w3.org/2000/svg"
   xmlns:sodipodi="http://sodipodi.sourceforge.net/DTD/sodipodi-0.dtd"
   xmlns:inkscape="http://www.inkscape.org/namespaces/inkscape"
   version="1.0"
   width="661.41998"
   height="967.39001"
   viewBox="0 0 186.66742 273.01896"
   id="svg2"
   xml:space="preserve"
   style="fill-rule:evenodd"
   inkscape:version="0.48.3.1 r9886"
   sodipodi:docname="Escudo de El Retorno (Guaviare).svg"><metadata
   id="metadata459"><rdf:RDF><cc:Work
       rdf:about=""><dc:format>image/svg+xml</dc:format><dc:type
         rdf:resource="http://purl.org/dc/dcmitype/StillImage" /><dc:title /></cc:Work></rdf:RDF></metadata><sodipodi:namedview
   pagecolor="#ffffff"
   bordercolor="#666666"
   borderopacity="1"
   objecttolerance="10"
   gridtolerance="10"
   guidetolerance="10"
   inkscape:pageopacity="0"
   inkscape:pageshadow="2"
   inkscape:window-width="1280"
   inkscape:window-height="962"
   id="namedview457"
   showgrid="false"
   inkscape:zoom="0.57248215"
   inkscape:cx="432.85895"
   inkscape:cy="496.01275"
   inkscape:window-x="-8"
   inkscape:window-y="-8"
   inkscape:window-maximized="1"
   inkscape:current-layer="flowRoot12074" />
 <defs
   id="defs4">
  <font
   font-weight="400,700"
   font-style="normal"
   font-variant="normal"
   id="FontID0"
   horiz-origin-x="0"
   horiz-origin-y="0"
   horiz-adv-x="90"
   vert-origin-x="45"
   vert-origin-y="90"
   vert-adv-y="90"
   style="font-style:normal;font-variant:normal">
	<font-face
   id="font-face7"
   font-family="Arial">
	</font-face>
   <missing-glyph
   id="missing-glyph9"><path
     id="path11"
     d="M0 0z" /></missing-glyph>
   <glyph
   id="glyph13"
   horiz-adv-x="277"
   unicode=" " />
   <glyph
   id="glyph15"
   horiz-adv-x="556"
   unicode="0"><path
     id="path17"
     d="M274.326 718.82c69.4944,0 123.68,-24.8315 162.669,-74.3258 46.5169,-58.4831 69.8315,-155.674 69.8315,-291.489 0,-135.337 -23.4831,-232.669 -70.3371,-291.994 -38.6517,-48.8483 -92.6685,-73.1742 -162.163,-73.1742 -69.4944,0 -125.646,26.6573 -168.315,80.3371 -42.6685,53.4831 -64.0169,148.989 -64.0169,286.32 0,134.831 23.5112,231.826 70.3371,291.011 38.6798,48.8202 92.6685,73.3146 161.994,73.3146zm0 -113.82c-16.4888,0 -31.3202,-5.33708 -44.3258,-15.8427 -13.0056,-10.6461 -23.1742,-29.6629 -30.3371,-56.9944 -9.32584,-35.5056 -14.1573,-95.1685 -14.1573,-179.157 0,-84.0169 4.32584,-141.685 12.6685,-173.006 8.48315,-31.4888 19.1573,-52.3315 31.9944,-62.8371 13.0056,-10.3371 27.6685,-15.6742 44.1573,-15.6742 16.6854,0 31.5169,5.33708 44.4944,16.0112 13.0056,10.5056 23.1742,29.4944 30.3371,56.8258 9.35393,35.1685 14.1854,94.6629 14.1854,178.68 0,83.9888 -4.35393,141.657 -12.6685,173.174 -8.51124,31.3202 -19.1854,52.3315 -31.9944,62.9775 -13.0056,10.5056 -27.6685,15.8427 -44.3539,15.8427z" /></glyph>
   <glyph
   id="glyph19"
   horiz-adv-x="556"
   unicode="2"><path
     id="path21"
     d="M505.843 127.5l0 -127.5 -481.011 0c5.33708,48.1742 20.8427,93.8202 46.9944,136.994 26.0112,43.1742 77.5,100.337 154.185,171.685 61.9944,57.5 99.8315,96.6573 113.82,117.163 18.8483,28.3146 28.3427,56.3202 28.3427,83.9888 0,30.5056 -8.17416,53.9888 -24.6629,70.5056 -16.5169,16.4888 -39.1854,24.6629 -68.1742,24.6629 -28.6798,0 -51.3483,-8.67978 -68.3427,-25.8427 -16.8258,-17.3315 -26.6573,-45.9831 -29.3258,-85.9831l-136.657 13.6517c8.14607,75.5056 33.6517,129.663 76.6573,162.669 43.0056,32.8371 96.6573,49.3258 161.152,49.3258 70.6742,0 126.18,-19.1573 166.517,-57.1629 40.3371,-38.1461 60.5056,-85.4775 60.5056,-142.163 0,-32.1629 -5.8427,-62.8371 -17.3315,-91.9944 -11.5169,-29.1573 -29.8315,-59.6629 -54.8315,-91.4888 -16.6854,-21.1798 -46.6854,-51.6854 -89.8596,-91.3483 -43.3146,-39.6629 -70.8146,-66.1517 -82.3315,-79.1573 -11.4888,-13.0056 -20.9831,-25.6742 -28.1461,-38.0056l272.5 0z" /></glyph>
   <glyph
   id="glyph23"
   horiz-adv-x="556"
   unicode="8"><path
     id="path25"
     d="M160.169 386.18c-35.5056,15 -61.3483,35.6461 -77.3315,61.8258 -16.1798,26.1517 -24.1573,55 -24.1573,86.1517 0,53.3427 18.4831,97.5 55.8146,132.331 37.3315,34.8315 90.3371,52.3315 159.017,52.3315 67.9775,0 120.815,-17.5 158.315,-52.3315 37.6685,-34.8315 56.5169,-78.9888 56.5169,-132.331 0,-33.1461 -8.67978,-62.6685 -26.0112,-88.6517 -17.1629,-25.8427 -41.4888,-45.6742 -72.6685,-59.3258 39.6629,-15.8427 69.8315,-39.1854 90.5056,-69.8596 20.6742,-30.4775 31.0112,-65.8146 31.0112,-105.815 0,-66.1798 -21.0112,-119.831 -63.1742,-161.18 -42.1629,-41.3202 -98.1742,-61.9944 -168.174,-61.9944 -65.1685,0 -119.326,16.9944 -162.669,51.1798 -51.1517,40.4775 -76.6573,95.8146 -76.6573,166.152 0,38.6798 9.66292,74.1573 28.8202,106.657 19.1854,32.3596 49.4944,57.3596 90.8427,74.8596zm28.3427 138.146c0,-27.3315 7.66854,-48.6517 23.1461,-63.8202 15.5056,-15.3371 36.0112,-23.0056 61.8539,-23.0056 25.9831,0 46.8258,7.66854 62.5,23.1742 15.4775,15.5056 23.3146,36.8258 23.3146,64.1573 0,25.8427 -7.66854,46.3483 -23.1461,61.8258 -15.5056,15.5056 -35.8427,23.1742 -61.3483,23.1742 -26.3202,0 -47.3315,-7.83708 -63.0056,-23.3427 -15.5056,-15.6461 -23.3146,-36.3202 -23.3146,-62.1629zm-12.6685 -306.489c0,-37.8371 9.66292,-67.3315 28.9888,-88.5112 19.3258,-21.1517 43.5112,-31.6573 72.5,-31.6573 28.3427,0 51.8258,10.1685 70.3371,30.5056 18.5112,20.3371 27.8371,49.6629 27.8371,88.1461 0,33.5112 -9.49438,60.5056 -28.3427,80.8427 -18.8202,20.3371 -42.8371,30.5056 -71.8258,30.5056 -33.5112,0 -58.5112,-11.6573 -74.8315,-34.6629 -16.5169,-23.1742 -24.6629,-48.1742 -24.6629,-75.1685z" /></glyph>
   <glyph
   id="glyph27"
   horiz-adv-x="556"
   unicode="1"><path
     id="path29"
     d="M393.511 0l-137.191 0 0 517.163c-50.1404,-46.9944 -109.157,-81.6573 -177.163,-103.989l0 124.494c35.6742,11.6573 74.6629,33.8202 116.685,66.4888 41.9944,32.8371 70.8146,71.0112 86.3202,114.663l111.348 0 0 -718.82z" /></glyph>
   <glyph
   id="glyph31"
   horiz-adv-x="556"
   unicode="L"><path
     id="path33"
     d="M73.169 0l0 715.828 94.8303 0 0 -631.332 352.499 0 0 -84.4957 -447.329 0z" /></glyph>
   <glyph
   id="glyph35"
   horiz-adv-x="777"
   unicode="O"><path
     id="path37"
     d="M48.3305 348.672c0,118.83 31.8306,211.83 95.6689,278.999 63.8383,67.1572 146.173,100.83 247.168,100.83 65.9997,0 125.669,-15.8385 178.665,-47.3384 52.9959,-31.6652 93.4957,-75.6611 121.334,-132.165 27.8385,-56.3265 41.6691,-120.496 41.6691,-191.999 0,-72.6611 -14.5039,-137.669 -43.8305,-194.834 -29.3385,-57.3305 -70.8422,-100.665 -124.5,-130.169 -53.8344,-29.492 -111.673,-44.1612 -173.834,-44.1612 -67.4997,0 -127.677,16.1692 -180.673,48.8266 -53.1612,32.5038 -93.3303,77.0076 -120.661,133.334 -27.3424,56.173 -41.0077,115.842 -41.0077,178.676zm97.665 -1.49999c0,-86.3382 23.1731,-154.169 69.5076,-203.834 46.4998,-49.677 104.669,-74.5036 174.661,-74.5036 71.3383,0 130.003,25.0038 176.007,75.1651 45.9919,50.173 69.1651,121.334 69.1651,213.495 0,58.1691 -10.0039,109.004 -29.6692,152.503 -19.6653,43.4998 -48.4959,77.1729 -86.3382,101.173 -37.9959,23.8346 -80.4918,35.8345 -127.665,35.8345 -67.169,0 -124.83,-23.0078 -173.161,-69.1769 -48.3305,-45.9919 -72.5076,-123 -72.5076,-230.657z" /></glyph>
   <glyph
   id="glyph39"
   horiz-adv-x="277"
   unicode="I"><path
     id="path41"
     d="M93.3303 0l0 715.828 94.665 0 0 -715.828 -94.665 0z" /></glyph>
   <glyph
   id="glyph43"
   horiz-adv-x="667"
   unicode="E"><path
     id="path45"
     d="M79.169 0l0 715.828 517.498 0 0 -84.4957 -422.833 0 0 -219.164 395.998 0 0 -83.9997 -395.998 0 0 -243.672 439.498 0 0 -84.4957 -534.163 0z" /></glyph>
   <glyph
   id="glyph47"
   horiz-adv-x="722"
   unicode="D"><path
     id="path49"
     d="M77.1611 0l0 715.828 246.507 0c55.6651,0 98.161,-3.49605 127.499,-10.3228 40.9959,-9.34248 76.0036,-26.5038 105,-51.177 37.6652,-31.9959 65.9997,-72.6611 84.6611,-122.326 18.8385,-49.6652 28.1692,-106.334 28.1692,-170.173 0,-54.3305 -6.33068,-102.496 -19.1692,-144.495 -12.6614,-41.9998 -28.8306,-76.8304 -48.8266,-104.338 -19.8306,-27.496 -41.5038,-49.1573 -65.173,-64.8305 -23.492,-15.8267 -51.9919,-27.8267 -85.3343,-35.9999 -33.4959,-8.16139 -71.8226,-12.1653 -114.992,-12.1653l-258.342 0zm94.6768 84.4957l152.834 0c47.1612,0 84.3304,4.33463 111.165,13.1692 26.8345,8.83461 48.1652,21.1653 64.169,37.1691 22.4999,22.3346 39.992,52.6651 52.4998,90.4957 12.496,38.0077 18.8267,83.8343 18.8267,137.999 0,74.8344 -12.3307,132.342 -36.8266,172.499 -24.6731,40.3345 -54.5077,67.169 -89.6689,80.8343 -25.3345,9.83854 -66.3423,14.6692 -122.503,14.6692l-150.495 0 0 -546.836z" /></glyph>
   <glyph
   id="glyph51"
   horiz-adv-x="667"
   unicode="A"><path
     id="path53"
     d="M-1.49463 0l274.99 715.829 102.006 0 292.993 -715.829 -107.996 0 -83.4972 216.834 -299.331 0 -78.5076 -216.834 -100.657 0zm206.495 294.005l242.827 0 -74.8328 198.157c-22.6667,60.1674 -39.6584,109.67 -50.6602,148.508 -9.17008,-46.0078 -22.0037,-91.4986 -38.6694,-136.832l-78.6649 -209.833z" /></glyph>
   <glyph
   id="glyph55"
   horiz-adv-x="722"
   unicode="N"><path
     id="path57"
     d="M76.1701 0l0 715.829 97.1624 0 375.996 -561.994 0 561.994 90.8355 0 0 -715.829 -97.1624 0 -376.007 562.499 0 -562.499 -90.8243 0z" /></glyph>
   <glyph
   id="glyph59"
   horiz-adv-x="722"
   unicode="C"><path
     id="path61"
     d="M587.829 250.997l94.8362 -23.9928c-19.8348,-77.676 -55.6611,-137.001 -107.164,-178.008 -51.6716,-40.8271 -114.671,-61.1676 -189.335,-61.1676 -77.1703,0 -139.833,15.6656 -188.167,47.0079 -48.334,31.4997 -85.1717,76.9905 -110.333,136.495 -25.1615,59.673 -37.8378,123.673 -37.8378,191.999 0,74.5069 14.1709,139.507 42.6701,194.999 28.4992,55.5037 69.0004,97.6681 121.672,126.504 52.492,28.8363 110.333,43.1646 173.501,43.1646 71.6638,0 131.831,-18.1604 180.66,-54.6609 48.8397,-36.5005 82.8342,-87.6665 102.006,-153.835l-93.173 -22.0037c-16.6657,52.1661 -40.6698,90.0039 -72.3268,113.828 -31.4997,23.8355 -71.1693,35.6689 -119.166,35.6689 -55.0093,0 -100.837,-13.1595 -137.843,-39.501 -36.995,-26.4988 -62.9994,-61.8306 -77.8333,-106.333 -14.9913,-44.3333 -22.4982,-90.1613 -22.4982,-137.327 0,-60.999 8.83295,-114.008 26.4988,-159.499 17.8345,-45.3335 45.3335,-79.3392 82.8342,-101.837 37.5007,-22.4982 78.0019,-33.6686 121.672,-33.6686 52.9977,0 97.8367,15.3397 134.663,45.8392 36.8377,30.6569 61.6733,76.1589 74.6643,136.326z" /></glyph>
   <glyph
   id="glyph63"
   horiz-adv-x="666"
   unicode="V"><path
     id="path65"
     d="M255.337 0l-255.843 715.843 156.826 0 181.011 -529.831 175.337 529.831 153.343 0 -256.348 -715.843 -154.326 0z" /></glyph>
   <glyph
   id="glyph67"
   horiz-adv-x="722"
   unicode="R"><path
     id="path69"
     d="M73.1742 0l0 715.843 304.326 0c76.4888,0 131.994,-6.51685 166.657,-19.3539 34.6629,-12.809 62.5,-35.6461 83.3427,-68.4831 20.8427,-33.0056 31.1798,-70.5056 31.1798,-112.837 0,-53.6798 -15.8427,-98.1742 -47.3596,-133.174 -31.4888,-34.8315 -78.8202,-56.9944 -141.657,-65.9831 31.3483,-18.3427 57.1629,-38.3427 77.5,-60.1685 20.3371,-21.8539 47.6685,-60.5056 82.1629,-116.18l87.5 -139.663 -172.837 0 -104.494 155.843c-37.1629,55.6461 -62.5,90.6461 -76.1517,105.169 -13.6798,14.4944 -28.1742,24.3258 -43.5112,29.8315 -15.3371,5.33708 -39.4944,7.97753 -72.8371,7.97753l-29.1573 0 0 -298.82 -144.663 0zm144.663 413.174l106.826 0c69.3258,0 112.669,2.83708 130,8.65169 17.1629,5.8427 30.6742,16.0112 40.5056,30.3371 9.66292,14.3258 14.6629,32.1629 14.6629,53.6798 0,24.1573 -6.48876,43.4831 -19.3258,58.3146 -12.8371,14.8315 -31.0112,24.1854 -54.4944,28.1742 -11.6854,1.48876 -46.8539,2.33146 -105.506,2.33146l-112.669 0 0 -181.489z" /></glyph>
   <glyph
   id="glyph71"
   horiz-adv-x="667"
   unicode="P"><path
     id="path73"
     d="M77.1611 0l0 715.828 270.011 0c47.4919,0 83.8225,-2.32676 108.826,-6.82674 35.1731,-5.83462 64.6651,-16.996 88.4997,-33.4959 23.6692,-16.3346 42.8384,-39.5077 57.3305,-68.9997 14.5039,-29.6692 21.6731,-62.173 21.6731,-97.6768 0,-60.8265 -19.3346,-112.5 -58.0037,-154.665 -38.8345,-41.9998 -108.826,-63.1651 -209.999,-63.1651l-183.661 0 0 -290.999 -94.6768 0zm94.6768 375.495l185.161 0c61.1691,0 104.669,11.3385 130.334,34.1692 25.6653,22.8306 38.5038,54.8384 38.5038,96.165 0,29.9999 -7.49997,55.6769 -22.6653,77.0076 -15.1771,21.3306 -35.0077,35.3266 -59.8344,42.1652 -16.0039,4.16927 -45.3423,6.33068 -88.3343,6.33068l-183.165 0 0 -255.838z" /></glyph>
   <glyph
   id="glyph75"
   horiz-adv-x="777"
   unicode="Q"><path
     id="path77"
     d="M619.663 76.6651c43.8423,-30.3306 84.5075,-52.3344 121.5,-66.3304l-27.8267 -65.9997c-51.3305,18.496 -102.673,47.8345 -153.838,87.8264 -52.9959,-29.492 -111.496,-44.3266 -175.665,-44.3266 -64.8305,0 -123.496,15.6614 -176.338,46.8305 -52.6651,31.3345 -93.3303,75.1651 -121.83,131.834 -28.4999,56.6691 -42.6612,120.496 -42.6612,191.338 0,70.6651 14.3267,134.999 42.992,192.991 28.6652,57.8384 69.3422,102 122.338,132.342 52.8305,30.1652 112.003,45.3305 177.33,45.3305 66.1651,0 125.669,-15.6732 178.842,-47.173 52.9959,-31.3227 93.4957,-75.3304 121.322,-131.822 27.8385,-56.5037 41.6691,-120.177 41.6691,-191.172 0,-58.8305 -8.83461,-111.838 -26.8345,-158.834 -17.8346,-46.9959 -44.8345,-88.0036 -80.9997,-122.834zm-208.499 121.169c54.673,-15.3306 99.6728,-38.1731 135.165,-68.5037 55.6769,50.8344 83.5036,127.169 83.5036,229.003 0,58.0037 -9.82673,108.661 -29.5038,151.995 -19.6653,43.1691 -48.4959,76.8422 -86.3264,100.842 -38.0077,23.8346 -80.5036,35.8345 -127.83,35.8345 -70.4997,0 -129.177,-24.1771 -175.676,-72.5076 -46.6652,-48.3305 -69.8265,-120.496 -69.8265,-216.661 0,-92.9996 22.996,-164.503 68.9997,-214.334 46.1691,-49.6652 105,-74.669 176.503,-74.669 33.992,0 65.8226,6.33068 95.8225,19.0039 -29.6574,19.3228 -60.9919,32.9999 -93.8264,40.9959l22.996 68.9997z" /></glyph>
   <glyph
   id="glyph79"
   horiz-adv-x="610"
   unicode="T"><path
     id="path81"
     d="M259.334 0l0 631.332 -235.83 0 0 84.4957 567.328 0 0 -84.4957 -236.834 0 0 -631.332 -94.665 0z" /></glyph>
   <glyph
   id="glyph83"
   horiz-adv-x="722"
   unicode="U"><path
     id="path85"
     d="M546.834 715.829l94.8362 0 0 -413.665c0,-71.8323 -8.16992,-128.999 -24.4985,-171.332 -16.3398,-42.333 -45.6706,-76.6646 -88.1722,-103.163 -42.5015,-26.6674 -98.1626,-39.8382 -167.163,-39.8382 -67.0001,0 -121.998,11.5076 -164.5,34.6688 -42.6701,23.0039 -73.1696,56.5039 -91.3412,100.332 -18.3289,43.8388 -27.3304,103.501 -27.3304,179.334l0 413.665 94.6676 0 0 -413.16c0,-62.1678 5.83244,-108.007 17.3288,-137.338 11.5076,-29.4994 31.5109,-52.1661 59.5044,-68.1688 28.162,-15.9915 62.6622,-23.9928 103.332,-23.9928 69.6634,0 119.335,15.8341 149.003,47.5024 29.4994,31.4997 44.3333,92.1616 44.3333,181.997l0 413.16z" /></glyph>
  </font>
  <style
   type="text/css"
   id="style87" />
 
  <font
   font-weight="700"
   font-variant="normal"
   font-style="normal"
   id="FontID0-8"
   horiz-origin-x="0"
   horiz-origin-y="0"
   horiz-adv-x="90"
   vert-origin-x="45"
   vert-origin-y="90"
   vert-adv-y="90"
   style="font-style:normal;font-variant:normal;font-weight:700">
	<font-face
   id="font-face9351"
   font-family="Arial">
	</font-face>
   <missing-glyph
   id="missing-glyph9353"><path
     id="path9355"
     d="M 0 0 Z" /></missing-glyph>
   <glyph
   id="glyph9357"
   horiz-adv-x="722"
   unicode="C"><path
     id="path9359"
     d="M 530.833 263.167 l 140.001 -44.3339 c -21.5002 -78.1668 -57.1678 -136.167 -107.167 -174.167 c -49.8335 -37.8331 -113.333 -56.8327 -190.166 -56.8327 c -94.9995 0 -173.166 32.4995 -234.333 97.3325 c -61.1665 65.0005 -91.8343 153.834 -91.8343 266.334 c 0 119.166 30.8339 211.667 92.3341 277.667 c 61.5002 65.8326 142.332 98.8335 242.667 98.8335 c 87.499 0 158.667 -25.8341 213.332 -77.6669 c 32.6671 -30.5002 57.0003 -74.5003 73.3345 -131.833 l -143.167 -34.1666 c -8.334 37.1657 -26.0002 66.5001 -53.0001 87.9988 c -26.8338 21.5002 -59.4994 32.1673 -97.8338 32.1673 c -53.0001 0 -96.1667 -18.9996 -129.166 -57.1664 c -32.9994 -38.0007 -49.4998 -99.667 -49.4998 -185.001 c 0 -90.4995 16.1667 -155 48.8324 -193.333 c 32.501 -38.5005 74.8341 -57.6662 126.834 -57.6662 c 38.499 0 71.4999 12.1666 99.1657 36.6658 c 27.6673 24.3331 47.5005 62.8336 59.667 115.168 Z" /></glyph>
   <glyph
   id="glyph9361"
   horiz-adv-x="777"
   unicode="O"><path
     id="path9363"
     d="M 43.5003 353.501 c 0 72.9994 10.8332 134.166 32.6657 183.666 c 16.3343 36.3336 38.5005 69.1668 66.6676 98.1675 c 28.1657 28.8331 58.9996 50.3333 92.5003 64.3331 c 44.6661 18.9996 95.9991 28.3333 154.333 28.3333 c 105.5 0 189.833 -32.6671 253.166 -98.1675 c 63.3335 -65.3328 95.0009 -156.332 95.0009 -272.833 c 0 -115.666 -31.4999 -205.999 -94.3335 -271.332 c -62.8336 -65.1667 -146.834 -97.8338 -251.834 -97.8338 c -106.5 0 -191.166 32.4995 -254 97.3325 c -62.8322 65.0005 -94.1659 154.5 -94.1659 268.335 Z m 148.833 4.83223 c 0 -80.9997 18.8335 -142.5 56.1667 -184.333 c 37.4994 -41.8332 84.9998 -62.666 142.666 -62.666 c 57.5001 0 104.834 20.6667 141.834 62.3323 c 36.8334 41.501 55.3332 103.667 55.3332 186.668 c 0 81.9993 -17.9999 143.166 -53.8337 183.666 c -35.9999 40.3337 -83.8326 60.5006 -143.333 60.5006 c -59.6656 0 -107.666 -20.5006 -144.166 -61.3327 c -36.3336 -40.8335 -54.6672 -102.334 -54.6672 -184.834 Z" /></glyph>
  </font>
</defs>
</svg>
